Rules FAQ Advertising

I confirm that i am at least 18 years old

Perfect Homemade Clips Collection 06 (Best Amateur Pack)


DownloadPerfect Homemade Clips Collection 06 (Best Amateur Pack).torrent
Description
Forbidden for under 18!
 



Натисни за голям размер




     General
Complete name     : E:\zamunda\novi\Perfect Homemade Clips Collection 06 (Best Amateur Pack)\perfect.homemade.clips.collection.06.mp4.flv.avi.mov\01 beautiful teen blowjob.avi
Format: AVI
Format/Info       : Audio Video Interleave
File size         : 18.5 MiB
Duration          : 2 min 0 s
Overall bit rate  : 1 292 kb/s
Writing application: Lavf52.105.0
IsTruncated       : Yes

Video
ID    : 0
Format: MPEG-4 Visual
Format profile    : Simple@L1
Format settings, BVOP: No
Format settings, QPel: No
Format settings, GMC: No warppoints
Format settings, Matrix      : Default (H.263)
Codec ID          : XVID
Codec ID/Hint     : XviD
Duration          : 2 min 0 s
Bit rate          : 1 152 kb/s
Width : 320 pixels
Height: 240 pixels
Display aspect ratio: 4:3
Frame rate        : 25.000 FPS
Color space       : YUV
Chroma subsampling: 4:2:0
Bit depth         : 8 bits
Scan type         : Progressive
Compression mode  : Lossy
Bits/(Pixel*Frame): 0.600
Stream size       : 16.5 MiB (89%)
Writing library   : Lavc52.117.0
Audio
ID    : 1
Format: MPEG Audio
Format version    : Version 1
Format profile    : Layer 3
Mode  : Joint stereo
Mode extension    : MS Stereo
Codec ID          : 55
Codec ID/Hint     : MP3
Duration          : 2 min 0 s
Bit rate mode     : Constant
Bit rate          : 128 kb/s
Channel(s)        : 2 channels
Sampling rate     : 44.1 kHz
Compression mode  : Lossy
Stream size       : 1.84 MiB (10%)
Alignment         : Aligned on interleaves
Interleave, duration: 26  ms (0.65 video frame)
Interleave, preload duration : 104  ms
Writing library   : LAME3.97
NFOView NFO (18.26 KB)
TypeXXX
GenreDeepthroat, Teen, Amateur
Last seederLast active 2:52:36
Size854.13 MB (895,619,319 bytes)
Rating
Rating: 4.5 / 5 (4.5 from possible 5 with 4 vote(s) total)        (Login to rate it)
Added2017-04-06 16:58:17
Info:Hits:  4401 times
Num files
[See full list]
10 files
Peers
4 seeder(s), 0 leecher(s) = 4 peer(s)

No comments yet

Add comment